500 ПЕСЕН СБОРНИК ХИТЫ1990 - 2000 СКАЧАТЬ ТОРРЕНТ

RuTracker. org » Сборники фильмов » Скачать торрент Анжелика / Angélique [ Полная коллекция. dalemake. Анжелика, маркиза ангелов / Angélique, marquise des anges- Год выпуска: 1964. Stream size : 137 MiB (9%). Фильм неоднократно издавался в России на VHS и DVD в период с 2000 по 2006 года.

500 песен сборник хиты1990 - 2000 скачать торрент - 13 янв 2014. Форсаж 7 - самая крутая тачка репортаж со съемок · ПодробнееИнтересное. Музыка скачать через торрент Pop. Сборник. Поделиться… Скачать торрент файл Размер: 679. 41 MBЗагрузок: 71873Как скачать?

RuTracker. org » Сборники (lossy) » Скачать торрент (Metal) VA - Romantic collection - Metal Ballads 2 - 2000, MP3, 320 kbps. RuTracker. org » Сборники фильмов » Скачать торрент Анжелика / Angélique [ Полная коллекция. dalemake. Анжелика, маркиза ангелов / Angélique, marquise des anges- Год выпуска: 1964. Stream size : 137 MiB (9%). Фильм неоднократно издавался в России на VHS и DVD в период с 2000 по 2006 года. . и внежанровые сборники (lossy) » Скачать торрент (Восточно-азиатская музыка) Дискотека Бездна (Сборник Арабских и Турецких хитов) - 2008, MP3 (tracks), 128 kbps. Заслуживают внимания пару песен, остальное шлак. 12 фев 2015. Жанр: Adventure. Процессор: Intel Pentium 4 2, 0 GHz, AMD Athlon 64 2000+. Скачать торрент. Silent Hill 4: The Room (2004) PC | RePack от brainDEAD1986 · Sillent Hill Антология (1999-2009). Фобос: 1953 (2010) PC | RePack · Sonic Adventure DX (2004) PC · Дилемма 2 / Dilemma 2 (2008). 31 янв 2014. сборники (lossy) » Скачать торрент (Rock) VA Наше радио - 500 лучших песен - 2014. Ночные снайперы - Ты Дарила Мне Розы. mp3 10 июн 2010. RuTracker. org » Сборники мультфильмов » Скачать торрент Дикие лебеди. снятый по мотивам известной сказки Г. Х. Андерсена. 31 янв 2014. сборники (lossy) » Скачать торрент (Rock) VA Наше радио - 500. Сплин - Орбит Без Сахара. mp3 053. Сплин - Дочь самурая. mp3 RuTracker. org » Отечественная поп-музыка (сборники) (lossy) » Скачать торрент (Pop) VA - Союз 14-39+ (полные версии песен 49. Владимир Пресняков - Маша. Продолжительность: 1:39:13. Персональный медведь - Ежик 31 янв 2014. RuTracker. org » Неофициальные и внежанровые сборники (lossy) » Скачать торрент (Rock) VA Наше радио - 500 лучших песен - 2014. 10 июн 2010. RuTracker. org » Сборники мультфильмов » Скачать торрент Дикие. весь инэт, чтобы сделать коллекцию старых советских мультиков! 10 июн 2010. RuTracker. org » Сборники мультфильмов » Скачать торрент Дикие лебеди. снятый по мотивам известной сказки Г. Х. Андерсена. 31 янв 2014. сборники (lossy) » Скачать торрент (Rock) VA Наше радио - 500 лучших песен - 2014. Ночные снайперы - Ты Дарила Мне Розы. mp3 102 далматинца / 102 Dalmatians (2000) Скачать торрент. 12 фев 2013. Сборники мультфильмов » Скачать торрент Барби. Полная коллекция / Barbie. видео · музыка · софт · игры · книги · спорт · разное · общение. Мультфильм доступен на нашем торрент-трекере бесплатно, без регистрации и смс. Дневники Барби / Barbie Diaries (2006) [Время: 01:10: 22. 12 фев 2013. Сборники мультфильмов » Скачать торрент Барби. Полная. Мультфильм доступен на нашем торрент-трекере бесплатно, без регистрации и смс. модельера и вместе они создают ослепительный показ мод! 10 июл 2012. Сборники (общие) » Скачать торрент VA - Панк-Рок в Авто [2012, Punk, Punk Rock, MP3]. Rise Against - Help Is On The Way 21. Король. 12 фев 2013. Сборники мультфильмов » Скачать торрент Барби. Полная коллекция / Barbie. видео · музыка · софт · игры · книги · спорт · разное · общение. Мультфильм доступен на нашем торрент-трекере бесплатно, без регистрации и смс. Дневники Барби / Barbie Diaries (2006) [Время: 01:10: 22. 11 окт 2011. RuTracker. org » Сборники мультфильмов » Скачать торрент Бременские музыканты. (Бременские музыканты, По следам бременских. 10 апр 2013. Сборники мультфильмов » Скачать торрент Сборник классных. Рапунцель - Счастлива навсегда 2012 (Tangled Ever After) 12 фев 2013. Сборники мультфильмов » Скачать торрент Барби. Полная коллекция. видео · музыка · софт · игры · книги · спорт · разное · общение. Мультфильм доступен на нашем торрент-трекере бесплатно, без регистрации и смс. Барби в роли Принцессы Острова / Barbie as the Island Princess.

500 песен сборник хиты1990 - 2000 скачать торрент

500 ПЕСЕН СБОРНИК ХИТЫ1990 - 2000 СКАЧАТЬ ТОРРЕНТ